<?xml version="1.0" standalone="no"?>
<!DOCTYPE svg PUBLIC "-//W3C//DTD SVG 1.1//EN" "http://www.w3.org/Graphics/SVG/1.1/DTD/svg11.dtd" >
<svg xmlns="http://www.w3.org/2000/svg">
<metadata>Generated by IcoMoon</metadata>
<defs>
<font id="Icons" horiz-adv-x="1024">
<font-face units-per-em="1024" ascent="960" descent="-64" />
<missing-glyph horiz-adv-x="1024" />
<glyph unicode="&#x20;" horiz-adv-x="512" d="" />
<glyph unicode="&#xe900;" glyph-name="inbody" d="M336.457 165.181c4.876 0 4.876 4.876 4.876 9.752s0 9.752-4.876 9.752v0c-4.876 4.876-4.876 4.876-9.752 4.876s-9.752 0-9.752-4.876l-107.276-107.276c-4.876-4.876-4.876-4.876-4.876-9.752s0-9.752 4.876-9.752 14.629-4.876 19.505 0l107.276 107.276zM1024 730.819c0 4.876 0 9.752-4.876 9.752l-214.552 214.552c-4.876 4.876-4.876 4.876-9.752 4.876s-9.752 0-9.752-4.876l-780.19-780.19c-4.876 0-4.876-4.876-4.876-9.752s0-9.752 4.876-9.752l214.552-214.552c4.876-4.876 14.629-4.876 19.505 0l780.19 780.19c4.876 0 4.876 4.876 4.876 9.752zM984.99 725.943l-755.81-755.81-195.048 195.048 48.762 48.762 39.010-39.010c4.876-4.876 14.629-4.876 19.505 0s4.876 14.629 0 19.505l-39.010 39.010 48.762 48.762 68.267-68.267c4.876-4.876 14.629-4.876 19.505 0s4.876 4.876 4.876 9.752 0 9.752-4.876 9.752l-68.267 68.267 48.762 48.762 39.010-39.010c4.876-4.876 14.629-4.876 19.505 0 14.629 9.752 14.629 14.629 14.629 14.629s0 9.752-4.876 9.752l-39.010 39.010 48.762 48.762 68.267-68.267c4.876-4.876 14.629-4.876 19.505 0s4.876 9.752 4.876 14.629 0 4.876 0 9.752l-68.267 68.267 48.762 48.762 39.010-39.010c4.876-4.876 14.629-4.876 19.505 0s4.876 4.876 4.876 9.752 0 9.752-4.876 9.752l-39.010 43.886 48.762 48.762 68.267-68.267c4.876-4.876 14.629-4.876 19.505 0s4.876 4.876 4.876 9.752 0 9.752-4.876 9.752l-68.267 68.267 48.762 48.762 39.010-39.010c4.876-4.876 14.629-4.876 19.505 0s4.876 14.629 0 19.505l-39.010 39.010 48.762 48.762 68.267-68.267c4.876-4.876 14.629-4.876 19.505 0s4.876 14.629 0 19.505l-68.267 68.267 48.762 48.762 39.010-39.010c4.876-4.876 14.629-4.876 19.505 0s4.876 14.629 0 19.505l-39.010 39.010 48.762 48.762 68.267-68.267c4.876-4.876 14.629-4.876 19.505 0s4.876 4.876 4.876 9.752 0 9.752-4.876 9.752l-68.267 68.267 48.762 48.762 204.8-185.295z" />
<glyph unicode="&#xe901;" glyph-name="plan" d="M220.070 820.772h-17.965c-4.491 0-13.474-4.491-13.474-13.474 0-4.491 4.491-13.474 13.474-13.474h17.965c4.491 0 13.474 4.491 13.474 13.474-4.491 8.982-8.982 13.474-13.474 13.474zM287.439 820.772c-4.491 0-13.474-4.491-13.474-13.474 0-4.491 4.491-13.474 13.474-13.474h224.561c4.491 0 13.474 4.491 13.474 13.474 0 4.491-4.491 13.474-13.474 13.474h-224.561zM741.053-64h62.877c121.263 0 220.070 107.789 220.070 238.035v76.351c0 89.825-67.368 161.684-152.702 161.684h-35.93c-8.982 0-13.474 0-22.456-4.491l-4.491 4.491v-4.491c-8.982-4.491-17.965-8.982-22.456-13.474l-8.982-8.982v13.474c4.491 40.421 22.456 98.807 98.807 143.719 4.491 4.491 8.982 8.982 4.491 17.965-4.491 4.491-8.982 8.982-13.474 4.491-44.912-22.456-80.842-62.877-98.807-112.281l-4.491-17.965-4.491 13.474c0 4.491 0 4.491-4.491 8.982-8.982 22.456-22.456 40.421-40.421 58.386v0 296.421c0 26.947-22.456 44.912-44.912 44.912h-76.351v4.491c-4.491 17.965-22.456 31.439-44.912 31.439h-98.807v4.491c-13.474 35.93-49.404 62.877-89.825 62.877s-80.842-26.947-94.316-67.368v-4.491h-98.807c-17.965 0-35.93-13.474-44.912-31.439v-4.491h-76.351c-26.947 0-44.912-22.456-44.912-44.912v-830.877c0-26.947 22.456-44.912 44.912-44.912h624.281c8.982 0 13.474 0 22.456 4.491v0 0c17.965 0 31.439 0 49.404 0zM723.088 470.456v8.982l8.982-31.439c4.491-13.474 8.982-26.947 8.982-44.912v-8.982l-13.474 4.491c0 0 0 0-4.491 0-8.982 4.491-17.965 4.491-26.947 4.491h-35.93c-4.491 0-8.982 0-13.474 0v0h-4.491c-62.877 13.474-58.386 85.333-58.386 107.789v4.491h4.491c8.982 0 22.456 0 35.93 0 44.912 4.491 80.842-13.474 98.807-44.912zM592.842 834.246h76.351c13.474 0 22.456-8.982 22.456-22.456v-278.456l-8.982 4.491c-8.982 4.491-22.456 8.982-31.439 8.982h-4.491v211.088c0 17.965-13.474 26.947-26.947 26.947h-22.456v49.404zM143.719 843.228c0 13.474 8.982 22.456 22.456 22.456h103.298c0 0 4.491 0 4.491 0s0 0 0 0 4.491 4.491 4.491 4.491c0 0 0 0 0 0 13.474 40.421 44.912 67.368 80.842 67.368s67.368-26.947 71.86-58.386v0c0 0 0 0 0 0s0 0 0 0 0 0 0 0 0 0 0 0 4.491 0 4.491 0h107.789c13.474 0 22.456-8.982 22.456-22.456v-67.368c0-13.474-8.982-22.456-22.456-22.456h-377.263c-13.474 0-22.456 8.982-22.456 22.456v53.895zM125.754 757.895c4.491-17.965 22.456-31.439 44.912-31.439h381.754c17.965 0 35.93 13.474 44.912 31.439v4.491h31.439v-220.070h-4.491c-40.421 0-44.912-13.474-44.912-17.965-4.491-31.439-4.491-94.316 35.93-125.754l8.982-4.491-8.982-4.491c-53.895-26.947-89.825-85.333-89.825-148.211v-76.351c0-49.404 13.474-94.316 40.421-134.737l4.491-8.982h-476.070v741.053l31.439-4.491zM44.912-41.544c-13.474 0-22.456 8.982-22.456 22.456v830.877c0 13.474 8.982 22.456 22.456 22.456h76.351v-44.912h-22.456c-17.965 0-26.947-13.474-26.947-26.947v-727.579c0-17.965 13.474-26.947 26.947-26.947h485.053c13.474-13.474 26.947-22.456 40.421-35.93l17.965-8.982h-597.333zM543.439 169.544v76.351c0 76.351 58.386 139.228 125.754 139.228h35.93c4.491 0 8.982 0 17.965-4.491 22.456-8.982 35.93-31.439 35.93-53.895v-17.965c0-4.491 4.491-13.474 13.474-13.474s13.474 4.491 13.474 13.474v17.965c0 22.456 13.474 44.912 35.93 53.895v0c4.491 0 8.982 4.491 13.474 4.491h40.421c71.86 0 125.754-62.877 125.754-139.228v-76.351c0-116.772-89.825-211.088-197.614-211.088h-62.877c-112.281 0-197.614 94.316-197.614 211.088zM610.807 241.404c0 58.386 40.421 76.351 44.912 76.351s4.491 4.491 8.982 4.491c0 4.491 0 4.491 0 8.982s-8.982 8.982-13.474 8.982c-4.491 0-58.386-22.456-58.386-98.807 0-4.491 4.491-13.474 13.474-13.474 0 0 4.491 4.491 4.491 13.474zM157.193 569.263c0-13.474 8.982-22.456 22.456-22.456h40.421c13.474 0 22.456 8.982 22.456 22.456v35.93c0 13.474-8.982 22.456-22.456 22.456h-40.421c-13.474 0-22.456-8.982-22.456-22.456v-35.93zM175.158 609.684h49.404v-49.404h-49.404v49.404zM534.456 596.211h-251.509c-4.491 0-8.982-4.491-8.982-8.982s4.491-8.982 8.982-8.982h251.509c4.491 0 8.982 4.491 8.982 8.982s-4.491 8.982-8.982 8.982zM157.193 425.544c0-13.474 8.982-22.456 22.456-22.456h40.421c13.474 0 22.456 8.982 22.456 22.456v40.421c0 13.474-8.982 22.456-22.456 22.456h-40.421c-13.474 0-22.456-8.982-22.456-22.456v-40.421zM175.158 470.456h49.404v-49.404h-49.404v49.404zM534.456 456.982h-251.509c-4.491 0-8.982-4.491-8.982-8.982s4.491-8.982 8.982-8.982h251.509c4.491 0 8.982 4.491 8.982 8.982s-4.491 8.982-8.982 8.982zM157.193 295.298c0-13.474 8.982-22.456 22.456-22.456h40.421c13.474 0 22.456 8.982 22.456 22.456v40.421c0 13.474-8.982 22.456-22.456 22.456h-40.421c-13.474 0-22.456-8.982-22.456-22.456v-40.421zM175.158 340.211h49.404v-49.404h-49.404v49.404zM534.456 322.246h-251.509c-4.491 0-8.982-4.491-8.982-8.982s4.491-8.982 8.982-8.982h251.509c4.491 0 8.982 4.491 8.982 8.982 0 8.982-4.491 8.982-8.982 8.982zM157.193 156.070c0-13.474 8.982-22.456 22.456-22.456h40.421c13.474 0 22.456 8.982 22.456 22.456v40.421c0 13.474-8.982 22.456-22.456 22.456h-40.421c-13.474 0-22.456-8.982-22.456-22.456v-40.421zM175.158 200.982h49.404v-49.404h-49.404v49.404zM534.456 183.018h-251.509c-4.491 0-8.982-4.491-8.982-8.982s4.491-8.982 8.982-8.982h251.509c4.491 0 8.982 4.491 8.982 8.982s-4.491 8.982-8.982 8.982z" />
<glyph unicode="&#xe902;" glyph-name="quotes" horiz-adv-x="1149" d="M0 10.927v24.976l99.902 624.39c24.976 124.878 49.951 199.805 124.878 224.78 74.927 49.951 149.854 74.927 224.78 74.927 49.951 0 74.927 0 99.902 0l-24.976-174.829c-49.951 0-74.927 0-99.902-24.976 0-24.976-24.976-49.951-24.976-74.927l-24.976-199.805h49.951c24.976 0 24.976 0 49.951-24.976 0 0 0 0 0-24.976v-24.976l-49.951-374.634c0-49.951-49.951-99.902-99.902-99.902h-274.732c-24.976 0-49.951 24.976-49.951 74.927zM574.439 10.927v24.976l99.902 624.39c24.976 124.878 74.927 199.805 149.854 249.756 49.951 24.976 124.878 49.951 199.805 49.951 49.951 0 74.927 0 99.902 0l-24.976-174.829c-49.951 0-74.927 0-74.927-24.976-24.976-24.976-24.976-49.951-24.976-74.927l-49.951-199.805h49.951c24.976 0 24.976 0 49.951-24.976 0 0 24.976 0 24.976-24.976v-24.976l-74.927-374.634c0-74.927-24.976-99.902-99.902-99.902h-249.756c-49.951 0-74.927 24.976-74.927 74.927z" />
<glyph unicode="&#xe903;" glyph-name="mail" d="M950.857 91.428v438.857c-12-13.714-25.143-26.286-39.429-37.714-81.714-62.857-164-126.857-243.429-193.143-42.857-36-96-80-155.429-80h-1.143c-59.429 0-112.571 44-155.429 80-79.429 66.286-161.714 130.286-243.429 193.143-14.286 11.429-27.429 24-39.429 37.714v-438.857c0-9.714 8.571-18.286 18.286-18.286h841.143c9.714 0 18.286 8.571 18.286 18.286zM950.857 692c0 14.286 3.429 39.429-18.286 39.429h-841.143c-9.714 0-18.286-8.571-18.286-18.286 0-65.143 32.571-121.714 84-162.286 76.571-60 153.143-120.571 229.143-181.143 30.286-24.571 85.143-77.143 125.143-77.143h1.143c40 0 94.857 52.571 125.143 77.143 76 60.571 152.571 121.143 229.143 181.143 37.143 29.143 84 92.571 84 141.143zM1024 713.143v-621.714c0-50.286-41.143-91.429-91.429-91.429h-841.143c-50.286 0-91.429 41.143-91.429 91.429v621.714c0 50.286 41.143 91.429 91.429 91.429h841.143c50.286 0 91.429-41.143 91.429-91.429z" />
<glyph unicode="&#xe904;" glyph-name="cuerpo" d="M23.631 676.431h66.954v-15.754h-66.954v15.754zM23.631 743.385h196.923v-15.754h-196.923v15.754zM118.154 676.431h114.215v-15.754h-114.215v15.754zM118.154 136.862h66.954v-15.754h-66.954v15.754zM236.308 136.862h51.2v-15.754h-51.2v15.754zM47.262 69.908h236.308v-15.754h-236.308v15.754zM854.646 203.815h66.954v-15.754h-66.954v15.754zM756.185 203.815h51.2v-15.754h-51.2v15.754zM756.185 270.769h169.354v-15.754h-169.354v15.754zM744.369 774.892l-78.769-78.769-7.877 3.938c-7.877 3.938-15.754 7.877-19.692 11.815l-86.646 23.631v39.385l19.692 19.692c7.877 7.877 15.754 19.692 15.754 35.446v51.2c0 43.323-35.446 78.769-74.831 78.769v0c-19.692 0-39.385-7.877-55.138-23.631s-23.631-31.508-23.631-51.2v-51.2c0-11.815 3.938-23.631 15.754-35.446l19.692-19.692v-39.385l-82.708-23.631c-3.938 0-7.877-3.938-11.815-3.938l-7.877-3.938-102.4 102.4h-263.877v-15.754h256l98.462-98.462-3.938-7.877c-3.938-3.938-3.938-7.877-3.938-11.815l-74.831-240.246h-3.938c-19.692-11.815-35.446-23.631-43.323-43.323-3.938-3.938-3.938-11.815-3.938-15.754 0-19.692 15.754-35.446 35.446-35.446h3.938c3.938 0 7.877 0 11.815 3.938 31.508 11.815 55.138 35.446 66.954 63.015v3.938l86.646 161.477-3.938-39.385c0-27.569-7.877-59.077-15.754-86.646l-3.938-7.877c-11.815-35.446-15.754-74.831-15.754-114.215 0-7.877 0-15.754 0-23.631l11.815-181.169-82.708 82.708h-196.923v-15.754h189.046l90.585-90.585 3.938-78.769-51.2-23.631c-11.815-3.938-15.754-15.754-15.754-31.508s15.754-23.631 31.508-23.631h118.154l23.631 322.954h3.938l23.631-322.954h118.154c15.754 0 27.569 11.815 31.508 23.631 0 11.815-3.938 23.631-15.754 31.508l-47.262 19.692 11.815 200.862 94.523-94.523h196.923v15.754h-189.046l-98.462 98.462 3.938 63.015c0 7.877 0 15.754 0 23.631 0 35.446-3.938 74.831-15.754 110.277l-7.877 15.754c-7.877 27.569-11.815 55.138-15.754 82.708l-3.938 39.385 86.646-157.538 3.938-7.877c11.815-31.508 35.446-55.138 63.015-63.015h3.938c3.938 0 7.877 0 11.815 0h3.938c19.692 0 35.446 15.754 35.446 35.446 0 3.938 0 11.815-3.938 15.754-7.877 19.692-23.631 35.446-43.323 43.323h-3.938l-78.769 248.123 74.831 74.831h271.754v15.754h-279.631zM771.938 357.415v0c-3.938 0-3.938 0-7.877 0h-3.938c-23.631 7.877-47.262 27.569-55.138 55.138l-3.938 7.877-86.646 161.477c-3.938 3.938-7.877 7.877-15.754 7.877h-15.754v-31.508c0-39.385 3.938-74.831 15.754-110.277l3.938-11.815c11.815-35.446 15.754-70.892 15.754-106.338 0-7.877 0-15.754 0-23.631l-15.754-295.385 59.077-31.508c3.938-3.938 7.877-7.877 7.877-11.815 0-7.877-3.938-11.815-11.815-11.815h-106.338l-31.508 401.723h-15.754l-31.508-405.662h-106.338c-7.877 0-11.815 3.938-11.815 11.815-3.938 7.877 0 11.815 3.938 11.815l59.077 31.508-3.938 102.4-11.815 192.985c0 7.877 0 11.815 0 19.692 0 35.446 3.938 70.892 15.754 106.338l3.938 7.877c11.815 35.446 15.754 74.831 15.754 114.215v35.446h-15.754c-7.877 0-15.754-3.938-15.754-11.815l-86.646-157.538-3.938-7.877c-7.877-23.631-27.569-43.323-55.138-55.138-3.938 0-3.938 0-7.877 0v0c-11.815 0-19.692 7.877-19.692 19.692 0 3.938 0 3.938 3.938 7.877 7.877 15.754 19.692 31.508 39.385 39.385l7.877 3.938 78.769 244.185c3.938 15.754 11.815 27.569 27.569 31.508l94.523 27.569v35.446h11.815c7.877-3.938 19.692-3.938 27.569 0h11.815v-35.446l98.462-27.569c11.815-3.938 19.692-7.877 23.631-19.692 0-3.938 3.938-3.938 3.938-7.877l74.831-244.185 7.877-3.938c15.754-7.877 31.508-19.692 39.385-39.385 0-3.938 3.938-3.938 3.938-7.877 0-11.815-7.877-19.692-15.754-19.692zM535.631 786.708c-3.938-3.938-15.754-7.877-23.631-7.877s-15.754 3.938-23.631 7.877l-27.569 27.569c-7.877 7.877-7.877 15.754-7.877 23.631v47.262c0 15.754 7.877 31.508 15.754 43.323 11.815 11.815 27.569 15.754 43.323 15.754 31.508 0 59.077-27.569 59.077-59.077v-51.2c0-7.877-3.938-15.754-7.877-23.631l-27.569-23.631zM921.6 707.938h98.462v-15.754h-98.462v15.754zM771.938 707.938h98.462v-15.754h-98.462v15.754zM838.892 640.985h133.908v-15.754h-133.908v15.754z" />
<glyph unicode="&#xe905;" glyph-name="prev" horiz-adv-x="480" d="M368-64l112 80-304 432 304 432-112 80-368-512z" />
<glyph unicode="&#xe906;" glyph-name="alertas" horiz-adv-x="778" d="M442.69 955.528c0-58.131-4.472-111.79-8.943-165.45 0-8.943 13.415-8.943 13.415 0 4.472 53.659 4.472 107.319 8.943 165.45 0 4.472-4.472 4.472-4.472 4.472v0c-4.472 0-8.943 0-8.943-4.472zM621.555 794.55c-17.886-13.415-31.301-31.301-49.188-44.716-4.472-8.943 4.472-17.886 8.943-13.415 17.886 13.415 31.301 31.301 49.188 44.716 8.943 8.943 0 17.886-8.943 13.415zM773.59 606.742c-53.659 0-107.319 0-156.507 0-8.943 0-8.943-13.415 0-13.415 53.659 0 107.319 0 156.507 0 4.472 0 4.472 4.472 4.472 4.472v0c0 4.472 0 8.943-4.472 8.943z" />
<glyph unicode="&#xe907;" glyph-name="consulta" horiz-adv-x="876" d="M419.47 713.253c-135.711 0-246.747-111.036-246.747-246.747s111.036-246.747 246.747-246.747 246.747 111.036 246.747 246.747c0 135.711-111.036 246.747-246.747 246.747zM419.47 244.434c-123.373 0-222.072 98.699-222.072 222.072s98.699 222.072 222.072 222.072 215.904-98.699 215.904-222.072c0-123.373-98.699-222.072-215.904-222.072zM450.313 818.12h333.108v-30.843h-333.108v30.843zM616.867 596.048h166.554v-30.843h-166.554v30.843zM450.313 707.084v-6.169c18.506 0 37.012-6.169 49.349-18.506 6.169 0 12.337 0 24.675-6.169h259.084v30.843h-333.108z" />
<glyph unicode="&#xe908;" glyph-name="down" horiz-adv-x="2662" d="M1316.571-64l-1316.571 789.943 175.543 234.057 1141.029-672.914 1170.286 672.914 175.543-234.057z" />
<glyph unicode="&#xe909;" glyph-name="mute" horiz-adv-x="1155" d="M629.651 940.391c-21.787 13.072-45.753 10.894-67.54 0 0 0-2.179-2.179-2.179-2.179l-296.306-250.553h-230.945c-13.072 0-21.787-8.715-21.787-21.787v-413.957c0-6.536 2.179-10.894 6.536-15.251s8.715-6.536 15.251-6.536h230.945l294.128-270.162c0 0 2.179-2.179 4.357-2.179 10.894-6.536 21.787-8.715 34.86-8.715 10.894 0 21.787 2.179 32.681 8.715 21.787 13.072 34.86 34.86 34.86 61.004v860.596c0 26.145-13.072 47.932-34.86 61.004zM620.936 16.613c0-8.715-4.357-17.43-13.072-21.787-4.357-2.179-10.894-6.536-21.787 0l-291.949 265.804v100.221c0 13.072-8.715 21.787-21.787 21.787s-21.787-8.715-21.787-21.787v-87.149h-196.085v370.383h196.085v-87.149c0-13.072 8.715-21.787 21.787-21.787s21.787 8.715 21.787 21.787v98.043l291.949 248.374c10.894 4.357 19.609 2.179 21.787 0 8.715-4.357 13.072-13.072 13.072-21.787v-864.953zM1030.536 543.864l-30.502 30.502-95.864-95.864-95.864 95.864-30.502-30.502 95.864-95.864-95.864-95.864 30.502-30.502 95.864 95.864 95.864-95.864 30.502 30.502-95.864 95.864z" />
<glyph unicode="&#xe90a;" glyph-name="volume" horiz-adv-x="1155" d="M629.651 940.391c-21.787 13.072-45.753 10.894-67.54 0 0 0-2.179-2.179-2.179-2.179l-296.306-250.553h-230.945c-13.072 0-21.787-8.715-21.787-21.787v-413.957c0-6.536 2.179-10.894 6.536-15.251s8.715-6.536 15.251-6.536h230.945l294.128-270.162c0 0 2.179-2.179 4.357-2.179 10.894-6.536 21.787-8.715 34.86-8.715 10.894 0 21.787 2.179 32.681 8.715 21.787 13.072 34.86 34.86 34.86 61.004v860.596c0 26.145-13.072 47.932-34.86 61.004zM620.936 16.613c0-8.715-4.357-17.43-13.072-21.787-4.357-2.179-10.894-6.536-21.787 0l-291.949 265.804v100.221c0 13.072-8.715 21.787-21.787 21.787s-21.787-8.715-21.787-21.787v-87.149h-196.085v370.383h196.085v-87.149c0-13.072 8.715-21.787 21.787-21.787s21.787 8.715 21.787 21.787v98.043l291.949 248.374c10.894 4.357 19.609 2.179 21.787 0 8.715-4.357 13.072-13.072 13.072-21.787v-864.953zM856.238 859.779c-10.894 4.357-23.966-2.179-28.323-13.072s2.179-23.966 13.072-28.323c154.689-52.289 259.268-198.264 259.268-361.668s-104.579-307.2-257.089-361.668c-10.894-4.357-17.43-15.251-13.072-28.323 2.179-8.715 10.894-15.251 19.609-15.251 2.179 0 4.357 0 6.536 2.179 172.119 58.826 287.591 220.051 287.591 400.885 0 185.191-115.472 348.596-287.591 405.243zM947.745 458.894c0 130.723-87.149 246.196-211.336 283.234-10.894 4.357-23.966-4.357-26.145-15.251-4.357-10.894 4.357-23.966 15.251-26.145 106.757-30.502 180.834-130.723 180.834-239.66 0-111.115-74.077-209.157-180.834-239.66-10.894-4.357-17.43-15.251-15.251-26.145 2.179-8.715 10.894-15.251 21.787-15.251 2.179 0 4.357 0 6.536 0 122.009 32.681 209.157 148.153 209.157 278.877z" />
<glyph unicode="&#xe90b;" glyph-name="play" horiz-adv-x="796" d="M0 884.148v-872.296c0-56.889 56.889-94.815 94.815-56.889l682.667 436.148c37.926 18.963 37.926 75.852 0 113.778l-682.667 436.148c-37.926 37.926-94.815 0-94.815-56.889z" />
<glyph unicode="&#xe90c;" glyph-name="top" horiz-adv-x="2662" d="M1345.829 960l1316.571-760.686-175.543-263.314-1141.029 702.171-1199.543-702.171-146.286 263.314z" />
<glyph unicode="&#xe90d;" glyph-name="arrows" d="M0 273.92v40.96c0 10.24 0 10.24 10.24 10.24l184.32 102.4c0 0 0 0 0 10.24l-184.32 102.4c-10.24 0-10.24 0-10.24 10.24v40.96c0 0 0 10.24 10.24 10.24 0 0 10.24 0 10.24 0l245.76-143.36c10.24 0 10.24-10.24 10.24-10.24v-30.72c0-10.24 0-10.24-10.24-10.24l-245.76-143.36c0 0-10.24 0-10.24 0-10.24 0-10.24 0-10.24 10.24zM378.88 273.92v40.96c0 10.24 0 10.24 10.24 10.24l184.32 102.4c0 0 0 0 0 10.24l-184.32 102.4c-10.24 0-10.24 10.24-10.24 10.24v40.96c0 10.24 0 10.24 10.24 10.24 0 0 10.24 0 10.24 0l245.76-143.36c10.24 0 10.24-10.24 10.24-10.24v-30.72c0-10.24 0-10.24-10.24-10.24l-256-143.36c0 0-10.24 0-10.24 0s0 0 0 10.24zM747.52 273.92v40.96c0 10.24 0 10.24 10.24 10.24l184.32 102.4c0 0 0 0 0 10.24l-184.32 102.4c-10.24 0-10.24 10.24-10.24 10.24v40.96c0 10.24 0 10.24 10.24 10.24 0 0 10.24 0 10.24 0l245.76-143.36c10.24 0 10.24 0 10.24-10.24v-30.72c0-10.24 0-10.24-10.24-10.24l-245.76-143.36c0 0-10.24 0-10.24 0s-10.24 0-10.24 10.24z" />
<glyph unicode="&#xe90e;" glyph-name="bread" d="M913.723 802.462h-827.077c-47.262 0-86.646-39.385-86.646-86.646v-133.908c0-47.262 39.385-86.646 86.646-86.646h15.754v-433.231h803.446v441.108h15.754c47.262 0 86.646 39.385 86.646 86.646v126.031c-7.877 47.262-47.262 86.646-94.523 86.646zM133.908 101.415v433.231h-47.262c-31.508 0-47.262 23.631-47.262 47.262v133.908c0 23.631 23.631 47.262 47.262 47.262h630.154c31.508 0 47.262-23.631 47.262-47.262v-133.908c0-31.508-23.631-47.262-47.262-47.262h-47.262v-433.231h-535.631zM968.862 581.908c0-31.508-23.631-47.262-47.262-47.262h-55.138v-433.231h-165.415v401.723h15.754c47.262 0 86.646 39.385 86.646 86.646v126.031c0 15.754-7.877 39.385-15.754 47.262h133.908c31.508 0 47.262-23.631 47.262-47.262v-133.908zM732.554 621.292v63.015c0 23.631-23.631 47.262-47.262 47.262h-567.138c-31.508 0-47.262-23.631-47.262-47.262v-63.015c-7.877-31.508 15.754-55.138 47.262-55.138h47.262v-433.231h464.738v433.231h47.262c31.508 0 55.138 23.631 55.138 55.138zM598.646 605.538v-433.231h-401.723v433.231h-78.769c-7.877 0-15.754 7.877-15.754 15.754v63.015c0 7.877 7.877 15.754 15.754 15.754h567.138c7.877 0 15.754-7.877 15.754-15.754v-63.015c0-7.877-7.877-15.754-15.754-15.754h-86.646zM236.308 235.323h31.508v-31.508h-31.508v31.508zM330.831 298.338h31.508v-31.508h-31.508v31.508zM496.246 668.554h31.508v-31.508h-31.508v31.508zM417.477 621.292h31.508v-31.508h-31.508v31.508zM519.877 550.4h31.508v-31.508h-31.508v31.508zM252.062 369.231h31.508v-31.508h-31.508v31.508z" />
<glyph unicode="&#xe90f;" glyph-name="calendar" d="M772 580c22 0 40-18 40-40s-18-40-40-40c-22 0-40 18-40 40s18 40 40 40zM864 880h-52v40c0 22-18 40-40 40s-40-18-40-40v-40h-182v40c0 22-18 40-40 40s-40-18-40-40v-40h-180v40c0 22-18 40-40 40s-40-18-40-40v-40h-50c-88.2 0-160-71.8-160-160v-624c0-88.2 71.8-160 160-160h306c22 0 40 18 40 40s-18 40-40 40h-306c-44.2 0-80 35.8-80 80v624c0 44.2 35.8 80 80 80h50v-40c0-22 18-40 40-40s40 18 40 40v40h180v-40c0-22 18-40 40-40s40 18 40 40v40h182v-40c0-22 18-40 40-40s40 18 40 40v40h52c44.2 0 80-35.8 80-80v-228c0-22 18-40 40-40s40 18 40 40v228c0 88.2-71.8 160-160 160zM782 420c-133.4 0-242-108.6-242-242s108.6-242 242-242 242 108.6 242 242-108.6 242-242 242zM782 16c-89.4 0-162 72.6-162 162s72.6 162 162 162 162-72.6 162-162-72.6-162-162-162zM840 218h-18v42c0 22-18 40-40 40s-40-18-40-40v-82c0-22 18-40 40-40h58c22 0 40 18 40 40s-18 40-40 40zM598 580c22 0 40-18 40-40s-18-40-40-40c-22 0-40 18-40 40s18 40 40 40zM424 406c22 0 40-18 40-40s-18-40-40-40c-22 0-40 18-40 40s18 40 40 40zM250 580c22 0 40-18 40-40s-18-40-40-40c-22 0-40 18-40 40s18 40 40 40zM250 406c22 0 40-18 40-40s-18-40-40-40c-22 0-40 18-40 40s18 40 40 40zM250 232c22 0 40-18 40-40s-18-40-40-40c-22 0-40 18-40 40s18 40 40 40zM424 232c22 0 40-18 40-40s-18-40-40-40c-22 0-40 18-40 40s18 40 40 40zM424 580c22 0 40-18 40-40s-18-40-40-40c-22 0-40 18-40 40s18 40 40 40z" />
<glyph unicode="&#xe910;" glyph-name="cog" d="M849.92 540.16l-30.72 61.44c0 0 61.44 133.12 51.2 133.12l-71.68 71.68c-10.24 10.24-133.12-51.2-133.12-51.2l-61.44 20.48c0 0-51.2 133.12-61.44 133.12h-112.64c0 0-51.2-133.12-51.2-133.12l-61.44-20.48c0 0-133.12 61.44-133.12 51.2l-81.92-81.92c0 0 61.44-122.88 61.44-122.88l-30.72-61.44c0 0-133.12-51.2-133.12-61.44v-102.4c0-10.24 133.12-51.2 133.12-51.2l20.48-61.44c0 0-61.44-133.12-51.2-133.12l71.68-71.68c10.24 0 133.12 51.2 133.12 51.2l61.44-20.48c0 0 51.2-133.12 61.44-133.12h112.64c10.24 0 61.44 133.12 61.44 133.12l61.44 20.48c0 0 133.12-61.44 133.12-51.2l71.68 71.68c10.24 0-51.2 133.12-51.2 133.12l20.48 61.44c0 0 133.12 51.2 133.12 61.44v102.4c10.24 0-122.88 51.2-122.88 51.2zM645.12 427.52c0-81.92-71.68-153.6-153.6-153.6s-153.6 71.68-153.6 153.6 71.68 153.6 153.6 153.6c81.92 0 153.6-71.68 153.6-153.6z" />
<glyph unicode="&#xe911;" glyph-name="eggs" d="M755.676 857.8c-99.795 0-192.777-119.834-239.868-306.599-73.544 18.636-153.099 28.856-230.049 28.856-87.972 0-162.117-29.658-214.218-85.768-46.090-49.697-71.54-116.227-71.54-187.366 0-126.447 83.964-262.914 268.324-262.914 2.605 0 5.21-0.2 7.815-0.2 3.206-0.2 6.413-0.401 9.619-0.401 103.803 0 212.615 18.636 304.595 51.501 48.294-37.674 109.013-57.512 170.333-57.512 39.878 0 79.756 8.216 116.628 25.249 92.781 42.884 146.085 131.457 146.085 242.874 0 2.605 0.2 5.21 0.2 7.815 0.2 3.206 0.401 6.413 0.401 9.619 0 253.094-110.215 534.845-268.324 534.845zM278.143 80.683c-3.206 0.2-6.613 0.401-9.819 0.401-158.91 0-231.252 117.229-231.252 226.041 0 61.721 21.843 119.233 61.721 162.117 44.888 48.294 109.614 73.944 186.965 73.944 79.155 0 156.906-10.821 226.643-29.257l11.623-3.206c18.837-5.21 36.672-11.022 53.705-17.033 3.006-1.202 6.012-2.204 9.018-3.407 4.008-1.403 7.815-3.006 11.623-4.409 4.609-1.804 9.418-3.807 13.827-5.611 0.2-0.2 0.601-0.2 1.002-0.401 58.514-25.049 105.606-55.709 135.264-89.375 1.002-1.202 2.204-2.405 3.206-3.607 2.004-2.405 3.807-4.809 5.611-7.014 1.603-2.004 3.006-4.008 4.409-6.212 1.403-2.004 2.605-3.807 3.807-5.811 2.405-4.008 4.809-8.016 6.613-12.023 0.401-1.002 0.802-2.004 1.403-3.006 1.603-3.407 2.805-6.613 4.008-10.020 0.401-1.403 0.802-2.805 1.403-4.208 1.002-3.206 1.603-6.212 2.204-9.418 0.2-1.403 0.601-2.605 0.802-4.008 0.601-4.409 1.002-8.817 1.002-13.025 0-3.807-0.2-7.815-0.802-11.823-0.2-1.403-0.601-2.805-0.802-4.208-0.401-2.405-0.802-4.809-1.603-7.414-0.401-1.804-1.202-3.807-1.804-5.611-0.601-2.004-1.202-3.807-2.004-5.811-0.802-2.204-1.804-4.409-2.805-6.613-0.601-1.403-1.403-2.805-2.004-4.409-1.403-2.605-2.805-5.21-4.208-7.815-0.601-0.802-1.002-1.804-1.603-2.605-2.004-3.006-4.008-6.212-6.212-9.218 0-0.2-0.2-0.2-0.2-0.401-28.255-38.275-79.555-73.744-144.883-101.799-0.601-0.2-1.202-0.601-1.804-0.802-3.407-1.403-7.014-2.805-10.42-4.208-4.008-1.603-8.016-3.206-12.023-4.809-86.769-33.265-194.179-54.106-304.194-54.106-2.204 0-4.809 0-7.414 0.2zM986.727 315.541c-0.2-3.206-0.401-6.613-0.401-9.819 0-96.589-45.288-172.737-124.443-209.409-74.145-34.267-162.918-27.854-230.45 14.629 110.816 47.693 188.969 117.63 188.969 200.792 0 5.611-0.401 11.222-1.202 16.632 0 0.601-0.2 1.202-0.401 1.804-13.226 93.583-125.445 168.529-267.523 211.012 42.082 167.728 123.241 279.346 204.199 279.346 118.832 0 231.452-241.872 231.452-497.572 0-2.204-0.2-4.809-0.2-7.414z" />
<glyph unicode="&#xe912;" glyph-name="exit" d="M703.305 210.654c6.35-6.35 14.288-9.526 23.020-9.526s16.67 3.175 23.020 9.526l214.326 214.326c1.588 1.588 3.175 3.175 3.969 4.763 0 0 0.794 0.794 0.794 1.588 0.794 1.588 1.588 3.175 2.381 3.969 0 0.794 0 1.588 0.794 1.588 0.794 1.588 0.794 2.381 1.588 3.969 0.794 2.381 0.794 3.969 0.794 6.35s0 3.969-0.794 6.35c0 1.588-0.794 3.175-1.588 3.969 0 0.794 0 1.588-0.794 1.588-0.794 1.588-1.588 3.175-2.381 4.763 0 0 0 0.794-0.794 0.794-0.794 1.588-2.381 3.175-3.969 4.763l-214.326 214.326c-12.701 12.701-33.34 12.701-46.040 0s-12.701-33.34 0-46.040l158.76-158.76h-564.391c-18.257 0-32.546-14.288-32.546-32.546s14.288-32.546 32.546-32.546h564.391l-158.76-158.76c-12.701-11.113-12.701-31.752 0-44.453zM83.349 90.791h428.651c18.257 0 32.546 14.288 32.546 32.546v216.707c0 18.257-14.288 32.546-32.546 32.546s-32.546-14.288-32.546-32.546v-184.161h-363.56v600.905h363.56v-200.037c0-18.257 14.288-32.546 32.546-32.546s32.546 14.288 32.546 32.546v232.583c0 18.257-14.288 32.546-32.546 32.546h-428.651c-18.257 0-32.546-14.288-32.546-32.546v-665.997c0.794-18.257 15.082-32.546 32.546-32.546z" />
<glyph unicode="&#xe913;" glyph-name="fire" horiz-adv-x="768" d="M765.8 360.4c-11.8 152.8-82.8 248.4-145.6 332.8-58 78.4-108.2 145.8-108.2 245.4 0 8-4.4 15.4-11.6 19s-15.6 3-22.2-1.6c-94.2-67.4-172.8-181-200.2-289.4-19-75.4-21.6-160.4-22-216.4-87 18.6-106.8 148.8-107 150.2-1 6.8-5.2 12.6-11.2 15.8s-13.2 3.4-19.4 0.4c-4.6-2.2-112-56.8-118.2-274.8-0.2-7.2-0.2-14.6-0.2-21.8 0-211.8 172.2-384 384-384 0.2 0 0.6 0 0.8 0h0.2c211.4 0.6 383 172.6 383 384 0 10.6-2.2 40.4-2.2 40.4zM384-21.4c-70.6 0-128 61.2-128 136.4 0 2.6 0 5.2 0.2 8.4 0.8 31.8 6.8 53.4 13.4 67.8 12.4-26.6 34.6-51.2 70.4-51.2 11.8 0 21.4 9.6 21.4 21.4 0 30.4 0.6 65.4 8.2 97 6.8 28 22.8 57.8 43.2 81.8 9-31 26.8-56.2 44-80.6 24.6-35 50.2-71.4 54.6-133.2 0.2-3.6 0.6-7.4 0.6-11.4 0-75.2-57.4-136.4-128-136.4z" />
<glyph unicode="&#xe914;" glyph-name="lemon" d="M859 740.8c6.2 2.2 12.2 4.8 18 7.4 85.6 40 127.6 128 129.4 131.6 2.6 5.4 2.6 11.6 0 17s-7.2 9.4-13 10.8c-4 1-98.2 25.6-184-14.4-44-20.6-76.2-53-97.4-80.2-11.2 41.4-28.4 72.6-30.2 76.6-5 9.8-17 13.8-26.8 9-9.8-5-13.8-17-9-26.8 2.6-6 23-40.6 32.6-92-111-8.8-209.8-75-260.2-174.4-31.6 10.2-64.8 15.4-98.4 15.4-25.8 0-51.6-3-76.4-9.2-10.8-2.6-17.2-13.4-14.6-24.2s13.4-17.2 24.2-14.6c21.8 5.4 44.2 8 66.8 8 151.8 0 280-121.4 280-280 0-154.8-125.4-280-280-280-154.4 0-280 125.6-280 280 0 75.8 29.8 146.8 84 199.8 7.8 7.8 8 20.4 0.2 28.2s-20.4 8-28.2 0.2c-62-60.6-96-141.6-96-228.4 0-176.4 143.6-320 320-320 121.2 0 231.2 68.2 285.6 175.4 31.6-10.2 64.8-15.4 98.4-15.4 176.4 0 320 143.6 320 320 0 121.8-67.8 226.4-165 280.2zM826.2 857c47.4 22.2 99.8 20.4 130.4 16.6-16.6-25.8-49-67-96.6-89.2-19-8.8-40.4-14.6-63.8-17.2-19.4 5.8-39.4 9.8-59.6 11.8 17.6 24.4 47.6 58.2 89.6 78zM704 180.6c-28.2 0-56 4.2-82.6 12.4 12.4 34.4 18.6 70.6 18.6 107.6 0 128.4-75.6 238.8-184.2 289.8 47.8 91.2 142.2 149.6 246.2 150.2 0.2 0 0.2 0 0.4 0 0.6 0 1.2 0 1.8 0 153.2 0 280-123 280-280-0.2-154.4-125.8-280-280.2-280zM320 60.6c131 0 240 106.2 240 240 0 132.2-107.4 240-240 240-132.8 0-240-107.8-240-240 0-131 106.4-240 240-240zM165.2 427.2l100.6-100.6c-1-2-1.8-3.8-2.4-5.8h-142.4c3.8 39 19.2 75.8 44.2 106.4zM519 320.6h-142.4c-0.8 2-1.6 4-2.4 5.8l100.6 100.6c25-30.4 40.4-67.2 44.2-106.4zM474.8 174.2l-100.6 100.6c1 2 1.8 3.8 2.4 5.8h142.4c-3.8-39-19.2-76-44.2-106.4zM340 300.6c0-11-9-20-20-20s-20 9-20 20c0 11 9 20 20 20s20-8.8 20-20zM294.2 246.6c2-1 3.8-1.8 5.8-2.4v-142.4c-39.2 3.8-76 19.2-106.6 44.2l100.8 100.6zM340 244c2 0.8 4 1.6 5.8 2.4l100.6-100.6c-30.6-25-67.4-40.4-106.6-44.2v142.4zM345.8 354.8c-2 1-3.8 1.8-5.8 2.4v142.4c39.2-3.8 76-19.2 106.6-44.2l-100.8-100.6zM300 357.2c-2-0.8-4-1.6-5.8-2.4l-100.6 100.6c30.6 25 67.4 40.4 106.6 44.2v-142.4zM263.4 280.6c0.8-2 1.6-4 2.4-5.8l-100.6-100.6c-25 30.6-40.4 67.4-44.2 106.6h142.4zM174 582.6c-11 0-20-9-20-20s9-20 20-20c11 0 20 9 20 20 0 11.2-9 20-20 20z" />
<glyph unicode="&#xe916;" glyph-name="next" d="M375.467 960l-119.467-85.333 324.267-460.8-324.267-460.8 119.467-85.333 392.533 546.133z" />
<glyph unicode="&#xe917;" glyph-name="pause" d="M256 768h153.6v-614.4h-153.6v614.4zM614.4 768h153.6v-614.4h-153.6v614.4z" />
<glyph unicode="&#xe918;" glyph-name="cc-paypal" horiz-adv-x="1317" d="M425.714 433.143c0-28-22.286-49.143-50.286-49.143-21.143 0-36.571 12-36.571 34.286 0 28 21.714 50.286 49.714 50.286 21.143 0 37.143-13.143 37.143-35.429zM874.286 518.286c0-34.286-20.571-41.143-50.286-41.143l-18.286-0.571 9.714 61.143c0.571 4 3.429 6.286 7.429 6.286h10.286c19.429 0 41.143-1.143 41.143-25.714zM1074.857 433.143c0-28-22.286-49.143-49.714-49.143-21.143 0-37.143 12-37.143 34.286 0 28 21.714 50.286 49.714 50.286 21.143 0 37.143-13.143 37.143-35.429zM293.143 530.857c0 48-37.143 64-79.429 64h-91.429c-5.714 0-11.429-4.571-12-10.857l-37.143-233.143c-0.571-4.571 2.857-9.143 7.429-9.143h43.429c6.286 0 12 4.571 12.571 10.857l10.286 62.857c2.286 16.571 30.286 10.857 41.143 10.857 65.143 0 105.143 38.857 105.143 104.571zM469.714 352.571l23.429 149.143c0.571 4.571-2.857 9.143-7.429 9.143h-43.429c-8.571 0-9.143-12.571-9.714-18.857-13.143 19.429-32.571 22.857-54.286 22.857-56 0-98.857-49.143-98.857-103.429 0-44.571 28-73.714 72.571-73.714 20.571 0 46.286 9.143 60.571 25.143-1.143-3.429-2.286-8.571-2.286-12 0-5.143 2.286-9.143 7.429-9.143h39.429c6.286 0 11.429 4.571 12.571 10.857zM725.143 502.857c0 4-3.429 8-7.429 8h-44c-4 0-8-2.286-10.286-5.714l-60.571-89.143-25.143 85.714c-1.714 5.143-6.857 9.143-12.571 9.143h-42.857c-4 0-7.429-4-7.429-8 0-2.857 44.571-132 48.571-144-6.286-8.571-46.857-61.714-46.857-68.571 0-4 3.429-7.429 7.429-7.429h44c4 0 8 2.286 10.286 5.714l145.714 210.286c1.143 1.143 1.143 2.286 1.143 4zM942.286 530.857c0 48-37.143 64-79.429 64h-90.857c-6.286 0-12-4.571-12.571-10.857l-37.143-233.143c-0.571-4.571 2.857-9.143 7.429-9.143h46.857c4.571 0 8 3.429 9.143 7.429l10.286 66.286c2.286 16.571 30.286 10.857 41.143 10.857 65.143 0 105.143 38.857 105.143 104.571zM1118.857 352.571l23.429 149.143c0.571 4.571-2.857 9.143-7.429 9.143h-43.429c-8.571 0-9.143-12.571-9.714-18.857-12.571 19.429-32 22.857-54.286 22.857-56 0-98.857-49.143-98.857-103.429 0-44.571 28-73.714 72.571-73.714 21.143 0 46.857 9.143 60.571 25.143-0.571-3.429-2.286-8.571-2.286-12 0-5.143 2.286-9.143 7.429-9.143h39.429c6.286 0 11.429 4.571 12.571 10.857zM1243.429 586.286v0.571c0 4.571-3.429 8-7.429 8h-42.286c-3.429 0-6.857-2.857-7.429-6.286l-37.143-237.714-0.571-1.143c0-4 3.429-8 8-8h37.714c5.714 0 11.429 4.571 12 10.857zM224 509.714c-4.571-29.143-24-32.571-49.143-32.571l-18.857-0.571 9.714 61.143c0.571 4 4 6.286 7.429 6.286h10.857c25.714 0 45.143-3.429 40-34.286zM1316.571 804.571v-731.429c0-40-33.143-73.143-73.143-73.143h-1170.286c-40 0-73.143 33.143-73.143 73.143v731.429c0 40 33.143 73.143 73.143 73.143h1170.286c40 0 73.143-33.143 73.143-73.143z" />
<glyph unicode="&#xe919;" glyph-name="paypal" horiz-adv-x="878" d="M868 581.714v0c7.429-34.286 5.714-73.714-2.286-116.571-37.143-188.571-162.286-253.714-322.857-253.714h-25.143c-19.429 0-35.429-14.286-38.857-33.714l-2.286-10.857-31.429-197.714-1.143-8.571c-4-19.429-20-33.714-39.429-33.714h-143.429c-16 0-26.286 13.143-24 29.143 10.286 64 20 128 30.286 192s20.571 127.429 30.857 191.429c1.714 13.714 10.857 21.143 24.571 21.143 22.857 0 45.714 0.571 74.857 0 41.143-0.571 88.571 1.714 134.857 12 61.714 13.714 117.714 38.857 164 82.286 41.714 38.857 69.714 86.857 88.571 140.571 8.571 25.143 15.429 50.286 20 76 1.143 6.857 2.857 5.714 6.857 2.857 31.429-23.429 49.143-54.857 56-92.571zM769.714 742.857c0-46.857-10.857-91.429-26.286-134.857-29.714-86.286-85.714-148-172.571-180-46.286-16.571-94.857-23.429-144-24-34.286-0.571-68.571 0-102.857 0-37.143 0-60.571-18.286-67.429-54.857-8-43.429-39.429-245.714-48.571-302.857-0.571-4-2.286-5.714-6.857-5.714h-168.571c-17.143 0-29.714 14.857-27.429 31.429l132.571 840.571c3.429 21.714 22.857 38.286 45.143 38.286h341.714c24.571 0 81.143-10.857 119.429-25.714 81.143-31.429 125.714-95.429 125.714-182.286z" />
<glyph unicode="&#xe91a;" glyph-name="asesoria" horiz-adv-x="1309" d="M841.143 704h-841.143v190.171h833.829v-190.171zM36.571 740.571h768v117.029h-768v-117.029zM841.143 316.343h-841.143v197.486h833.829v-197.486zM36.571 352.914h768v124.343h-768v-124.343zM841.143-64h-841.143v190.171h833.829v-190.171zM36.571-27.429h768v109.714h-768v-109.714zM1031.314 689.371l-109.714 80.457 29.257 29.257 80.457-65.829 256 226.743 29.257-29.257zM1031.314 352.914l-109.714 80.457 29.257 29.257 80.457-65.829 256 226.743 29.257-29.257zM1031.314-34.743l-109.714 87.771 29.257 29.257 80.457-73.143 256 234.057 29.257-29.257z" />
<glyph unicode="&#xe91b;" glyph-name="bell" horiz-adv-x="810" d="M409.6-64c-65.164 0-121.018 55.855-121.018 121.018h242.036c0-65.164-55.855-121.018-121.018-121.018zM809.891 178.036v0 0c0-46.545-37.236-46.545-83.782-46.545h-651.636c-37.236 0-74.473 0-74.473 46.545v9.309c0 27.927 18.618 55.855 46.545 65.164l27.927 223.418c0 167.564 111.709 297.891 260.655 325.818v93.091c0 37.236 37.236 65.164 74.473 65.164s65.164-27.927 65.164-65.164v-83.782c148.945-37.236 269.964-167.564 269.964-335.127l27.927-223.418c18.618-9.309 37.236-37.236 37.236-74.473v0z" />
<glyph unicode="&#xe91c;" glyph-name="pencil" d="M864 960c88.364 0 160-71.634 160-160 0-36.020-11.91-69.258-32-96l-64-64-224 224 64 64c26.742 20.090 59.978 32 96 32zM64 224l-64-288 288 64 592 592-224 224-592-592zM715.578 596.422l-448-448-55.156 55.156 448 448 55.156-55.156z" />
<glyph unicode="&#xe91d;" glyph-name="lift, train, maintain, exercise, fit" d="M1024 512v-128h-128v-128h-128v-128h-128v256h-256v-256h-128v128h-128v128h-128v128h128v128h128v128h128v-256h256v256h128v-128h128v-128h128z" />
<glyph unicode="&#xe91e;" glyph-name="store-front" d="M921.6 467.456v-518.656h-819.2v518.656c15.389-3.889 33.056-6.12 51.245-6.12 37.467 0 72.723 9.469 103.504 26.146l-1.149-0.569v-230.912h512v230.4c29.492-15.869 64.538-25.194 101.761-25.194 18.402 0 36.272 2.279 53.343 6.57l-1.505-0.32zM153.6 972.8h204.8l-34.304-308.736c-11.832-85.147-83.292-150.251-170.311-152.061l-0.185-0.003c-84.992 0-132.096 65.024-104.96 145.92l104.96 314.88zM409.6 972.8h204.8l35.84-322.56c8.704-76.8-46.592-138.24-123.904-138.24h-28.672c-0.941-0.026-2.049-0.041-3.16-0.041-67.299 0-121.856 54.557-121.856 121.856 0 5.793 0.404 11.491 1.186 17.068l-0.074-0.643 35.84 322.56zM665.6 972.8h204.8l104.96-314.88c27.136-80.896-20.48-145.92-104.96-145.92-87.29 1.589-158.873 66.812-170.394 151.155l-0.102 0.909-34.304 308.736z" />
<glyph unicode="&#xe91f;" glyph-name="shopping-cart" horiz-adv-x="951" d="M365.714 73.143c0-40-33.143-73.143-73.143-73.143s-73.143 33.143-73.143 73.143 33.143 73.143 73.143 73.143 73.143-33.143 73.143-73.143zM877.714 73.143c0-40-33.143-73.143-73.143-73.143s-73.143 33.143-73.143 73.143 33.143 73.143 73.143 73.143 73.143-33.143 73.143-73.143zM950.857 694.857v-292.571c0-18.286-14.286-34.286-32.571-36.571l-596.571-69.714c2.857-13.143 7.429-26.286 7.429-40 0-13.143-8-25.143-13.714-36.571h525.714c20 0 36.571-16.571 36.571-36.571s-16.571-36.571-36.571-36.571h-585.143c-20 0-36.571 16.571-36.571 36.571 0 17.714 25.714 60.571 34.857 78.286l-101.143 470.286h-116.571c-20 0-36.571 16.571-36.571 36.571s16.571 36.571 36.571 36.571h146.286c38.286 0 39.429-45.714 45.143-73.143h686.286c20 0 36.571-16.571 36.571-36.571z" />
<glyph unicode="&#xe920;" glyph-name="question-circle" horiz-adv-x="878" d="M512 164.571v109.714c0 10.286-8 18.286-18.286 18.286h-109.714c-10.286 0-18.286-8-18.286-18.286v-109.714c0-10.286 8-18.286 18.286-18.286h109.714c10.286 0 18.286 8 18.286 18.286zM658.286 548.571c0 104.571-109.714 182.857-208 182.857-93.143 0-162.857-40-212-121.714-5.143-8-2.857-18.286 4.571-24l75.429-57.143c2.857-2.286 6.857-3.429 10.857-3.429 5.143 0 10.857 2.286 14.286 6.857 26.857 34.286 38.286 44.571 49.143 52.571 9.714 6.857 28.571 13.714 49.143 13.714 36.571 0 70.286-23.429 70.286-48.571 0-29.714-15.429-44.571-50.286-60.571-40.571-18.286-96-65.714-96-121.143v-20.571c0-10.286 8-18.286 18.286-18.286h109.714c10.286 0 18.286 8 18.286 18.286v0c0 13.143 16.571 41.143 43.429 56.571 43.429 24.571 102.857 57.714 102.857 144.571zM877.714 438.857c0-242.286-196.571-438.857-438.857-438.857s-438.857 196.571-438.857 438.857 196.571 438.857 438.857 438.857 438.857-196.571 438.857-438.857z" />
<glyph unicode="&#xe921;" glyph-name="money" horiz-adv-x="1097" d="M438.857 292.571h219.429v54.857h-73.143v256h-65.143l-84.571-78.286 44-45.714c13.714 12 22.286 18.286 31.429 32.571h1.143v-164.571h-73.143v-54.857zM731.429 438.857c0-104-62.857-237.714-182.857-237.714s-182.857 133.714-182.857 237.714 62.857 237.714 182.857 237.714 182.857-133.714 182.857-237.714zM1024 292.571v292.571c-80.571 0-146.286 65.714-146.286 146.286h-658.286c0-80.571-65.714-146.286-146.286-146.286v-292.571c80.571 0 146.286-65.714 146.286-146.286h658.286c0 80.571 65.714 146.286 146.286 146.286zM1097.143 768v-658.286c0-20-16.571-36.571-36.571-36.571h-1024c-20 0-36.571 16.571-36.571 36.571v658.286c0 20 16.571 36.571 36.571 36.571h1024c20 0 36.571-16.571 36.571-36.571z" />
<glyph unicode="&#xe922;" glyph-name="home" d="M1024 369.556l-512 397.426-512-397.428v162.038l512 397.426 512-397.428zM896 384v-384h-256v256h-256v-256h-256v384l384 288z" />
<glyph unicode="&#xe930;" glyph-name="folder-open" d="M832 0l192 512h-832l-192-512zM128 576l-128-576v832h288l128-128h416v-128z" />
<glyph unicode="&#xe942;" glyph-name="phone" d="M704 320c-64-64-64-128-128-128s-128 64-192 128-128 128-128 192 64 64 128 128-128 256-192 256-192-192-192-192c0-128 131.5-387.5 256-512s384-256 512-256c0 0 192 128 192 192s-192 256-256 192z" />
<glyph unicode="&#xe947;" glyph-name="location" d="M512 960c-176.732 0-320-143.268-320-320 0-320 320-704 320-704s320 384 320 704c0 176.732-143.27 320-320 320zM512 448c-106.040 0-192 85.96-192 192s85.96 192 192 192 192-85.96 192-192-85.96-192-192-192z" />
<glyph unicode="&#xe94c;" glyph-name="map" d="M672 768l-320 128-352-128v-768l352 128 320-128 352 128v768l-352-128zM384 814.27l256-102.4v-630.138l-256 102.398v630.14zM64 723.172l256 93.090v-631.8l-256-93.088v631.798zM960 172.828l-256-93.092v631.8l256 93.090v-631.798z" />
<glyph unicode="&#xe958;" glyph-name="mobile" d="M736 960h-448c-52.8 0-96-43.2-96-96v-832c0-52.8 43.2-96 96-96h448c52.8 0 96 43.2 96 96v832c0 52.8-43.2 96-96 96zM384 912h256v-32h-256v32zM512 0c-35.346 0-64 28.654-64 64s28.654 64 64 64 64-28.654 64-64-28.654-64-64-64zM768 192h-512v640h512v-640z" />
<glyph unicode="&#xe972;" glyph-name="users" horiz-adv-x="1152" d="M768 189.388v52.78c70.498 39.728 128 138.772 128 237.832 0 159.058 0 288-192 288s-192-128.942-192-288c0-99.060 57.502-198.104 128-237.832v-52.78c-217.102-17.748-384-124.42-384-253.388h896c0 128.968-166.898 235.64-384 253.388zM327.196 164.672c55.31 36.15 124.080 63.636 199.788 80.414-15.054 17.784-28.708 37.622-40.492 59.020-30.414 55.234-46.492 116.058-46.492 175.894 0 86.042 0 167.31 30.6 233.762 29.706 64.504 83.128 104.496 159.222 119.488-16.914 76.48-61.94 126.75-181.822 126.75-192 0-192-128.942-192-288 0-99.060 57.502-198.104 128-237.832v-52.78c-217.102-17.748-384-124.42-384-253.388h279.006c14.518 12.91 30.596 25.172 48.19 36.672z" />
<glyph unicode="&#xe973;" glyph-name="user-plus" d="M384 224c0 151.234 95.874 280.486 230.032 330.2 16.28 36.538 25.968 77.164 25.968 117.8 0 159.058 0 288-192 288s-192-128.942-192-288c0-99.060 57.502-198.104 128-237.832v-52.78c-217.102-17.748-384-124.42-384-253.388h397.306c-8.664 30.53-13.306 62.732-13.306 96zM736 512c-159.058 0-288-128.942-288-288s128.942-288 288-288c159.056 0 288 128.942 288 288s-128.942 288-288 288zM896 192h-128v-128h-64v128h-128v64h128v128h64v-128h128v-64z" />
<glyph unicode="&#xe99a;" glyph-name="pie-chart" d="M448 384v448c-247.424 0-448-200.576-448-448s200.576-448 448-448 448 200.576 448 448c0 72.034-17.028 140.084-47.236 200.382l-400.764-200.382zM912.764 712.382c-73.552 146.816-225.374 247.618-400.764 247.618v-448l400.764 200.382z" />
<glyph unicode="&#xe99b;" glyph-name="stats-dots" d="M128 64h896v-128h-1024v1024h128zM288 128c-53.020 0-96 42.98-96 96s42.98 96 96 96c2.828 0 5.622-0.148 8.388-0.386l103.192 171.986c-9.84 15.070-15.58 33.062-15.58 52.402 0 53.020 42.98 96 96 96s96-42.98 96-96c0-19.342-5.74-37.332-15.58-52.402l103.192-171.986c2.766 0.238 5.56 0.386 8.388 0.386 2.136 0 4.248-0.094 6.35-0.23l170.356 298.122c-10.536 15.408-16.706 34.036-16.706 54.11 0 53.020 42.98 96 96 96s96-42.98 96-96c0-53.020-42.98-96-96-96-2.14 0-4.248 0.094-6.35 0.232l-170.356-298.124c10.536-15.406 16.706-34.036 16.706-54.11 0-53.020-42.98-96-96-96s-96 42.98-96 96c0 19.34 5.74 37.332 15.578 52.402l-103.19 171.984c-2.766-0.238-5.56-0.386-8.388-0.386s-5.622 0.146-8.388 0.386l-103.192-171.986c9.84-15.068 15.58-33.060 15.58-52.4 0-53.020-42.98-96-96-96z" />
<glyph unicode="&#xe9a3;" glyph-name="spoon-knife" d="M224 960c-106.040 0-192-100.288-192-224 0-105.924 63.022-194.666 147.706-217.998l-31.788-518.124c-2.154-35.132 24.882-63.878 60.082-63.878h32c35.2 0 62.236 28.746 60.082 63.878l-31.788 518.124c84.684 23.332 147.706 112.074 147.706 217.998 0 123.712-85.96 224-192 224zM869.334 960l-53.334-320h-40l-26.666 320h-26.668l-26.666-320h-40l-53.334 320h-26.666v-416c0-17.672 14.326-32 32-32h83.338l-31.42-512.122c-2.154-35.132 24.882-63.878 60.082-63.878h32c35.2 0 62.236 28.746 60.082 63.878l-31.42 512.122h83.338c17.674 0 32 14.328 32 32v416h-26.666z" />
<glyph unicode="&#xe9b2;" glyph-name="accessibility" d="M416 864c0 53.018 42.98 96 96 96s96-42.982 96-96c0-53.020-42.98-96-96-96s-96 42.98-96 96zM640 640l329.596 142.172-23.77 59.424-401.826-137.596h-64l-401.826 137.596-23.77-59.424 329.596-142.172v-256l-131.27-424.57 59.84-22.7 185.716 415.27h27.428l185.716-415.27 59.84 22.7-131.27 424.57z" />
<glyph unicode="&#xe9b8;" glyph-name="clipboard" d="M928 832h-288c0 70.692-57.306 128-128 128-70.692 0-128-57.308-128-128h-288c-17.672 0-32-14.328-32-32v-832c0-17.674 14.328-32 32-32h832c17.674 0 32 14.326 32 32v832c0 17.672-14.326 32-32 32zM512 896c35.346 0 64-28.654 64-64s-28.654-64-64-64c-35.346 0-64 28.654-64 64s28.654 64 64 64zM896 0h-768v768h128v-96c0-17.672 14.328-32 32-32h448c17.674 0 32 14.328 32 32v96h128v-768zM448 101.49l-205.254 237.254 58.508 58.51 146.746-114.744 274.742 242.744 58.514-58.508z" />
<glyph unicode="&#xe9cd;" glyph-name="attachment" d="M665.832 632.952l-64.952 64.922-324.81-324.742c-53.814-53.792-53.814-141.048 0-194.844 53.804-53.792 141.060-53.792 194.874 0l389.772 389.708c89.714 89.662 89.714 235.062 0 324.726-89.666 89.704-235.112 89.704-324.782 0l-409.23-409.178c-0.29-0.304-0.612-0.576-0.876-0.846-125.102-125.096-125.102-327.856 0-452.906 125.054-125.056 327.868-125.056 452.988 0 0.274 0.274 0.516 0.568 0.82 0.876l0.032-0.034 279.332 279.292-64.986 64.92-279.33-279.262c-0.296-0.268-0.564-0.57-0.846-0.844-89.074-89.058-233.98-89.058-323.076 0-89.062 89.042-89.062 233.922 0 322.978 0.304 0.304 0.604 0.582 0.888 0.846l-0.046 0.060 409.28 409.166c53.712 53.738 141.144 53.738 194.886 0 53.712-53.734 53.712-141.148 0-194.84l-389.772-389.7c-17.936-17.922-47.054-17.922-64.972 0-17.894 17.886-17.894 47.032 0 64.92l324.806 324.782z" />
<glyph unicode="&#xe9ce;" glyph-name="eye" d="M512 768c-223.318 0-416.882-130.042-512-320 95.118-189.958 288.682-320 512-320 223.312 0 416.876 130.042 512 320-95.116 189.958-288.688 320-512 320zM764.45 598.296c60.162-38.374 111.142-89.774 149.434-150.296-38.292-60.522-89.274-111.922-149.436-150.296-75.594-48.218-162.89-73.704-252.448-73.704-89.56 0-176.858 25.486-252.452 73.704-60.158 38.372-111.138 89.772-149.432 150.296 38.292 60.524 89.274 111.924 149.434 150.296 3.918 2.5 7.876 4.922 11.86 7.3-9.96-27.328-15.41-56.822-15.41-87.596 0-141.382 114.616-256 256-256 141.382 0 256 114.618 256 256 0 30.774-5.452 60.268-15.408 87.598 3.978-2.378 7.938-4.802 11.858-7.302v0zM512 544c0-53.020-42.98-96-96-96s-96 42.98-96 96 42.98 96 96 96 96-42.982 96-96z" />
<glyph unicode="&#xea0a;" glyph-name="plus" d="M992 576h-352v352c0 17.672-14.328 32-32 32h-192c-17.672 0-32-14.328-32-32v-352h-352c-17.672 0-32-14.328-32-32v-192c0-17.672 14.328-32 32-32h352v-352c0-17.672 14.328-32 32-32h192c17.672 0 32 14.328 32 32v352h352c17.672 0 32 14.328 32 32v192c0 17.672-14.328 32-32 32z" />
<glyph unicode="&#xea0b;" glyph-name="minus" d="M0 544v-192c0-17.672 14.328-32 32-32h960c17.672 0 32 14.328 32 32v192c0 17.672-14.328 32-32 32h-960c-17.672 0-32-14.328-32-32z" />
<glyph unicode="&#xea0f;" glyph-name="cross" d="M1014.662 137.34c-0.004 0.004-0.008 0.008-0.012 0.010l-310.644 310.65 310.644 310.65c0.004 0.004 0.008 0.006 0.012 0.010 3.344 3.346 5.762 7.254 7.312 11.416 4.246 11.376 1.824 24.682-7.324 33.83l-146.746 146.746c-9.148 9.146-22.45 11.566-33.828 7.32-4.16-1.55-8.070-3.968-11.418-7.31 0-0.004-0.004-0.006-0.008-0.010l-310.648-310.652-310.648 310.65c-0.004 0.004-0.006 0.006-0.010 0.010-3.346 3.342-7.254 5.76-11.414 7.31-11.38 4.248-24.682 1.826-33.83-7.32l-146.748-146.748c-9.148-9.148-11.568-22.452-7.322-33.828 1.552-4.16 3.97-8.072 7.312-11.416 0.004-0.002 0.006-0.006 0.010-0.010l310.65-310.648-310.65-310.652c-0.002-0.004-0.006-0.006-0.008-0.010-3.342-3.346-5.76-7.254-7.314-11.414-4.248-11.376-1.826-24.682 7.322-33.83l146.748-146.746c9.15-9.148 22.452-11.568 33.83-7.322 4.16 1.552 8.070 3.97 11.416 7.312 0.002 0.004 0.006 0.006 0.010 0.010l310.648 310.65 310.648-310.65c0.004-0.002 0.008-0.006 0.012-0.008 3.348-3.344 7.254-5.762 11.414-7.314 11.378-4.246 24.684-1.826 33.828 7.322l146.746 146.748c9.148 9.148 11.57 22.454 7.324 33.83-1.552 4.16-3.97 8.068-7.314 11.414z" />
<glyph unicode="&#xea10;" glyph-name="checkmark" d="M864 832l-480-480-224 224-160-160 384-384 640 640z" />
<glyph unicode="&#xea90;" glyph-name="facebook" d="M608 768h160v192h-160c-123.514 0-224-100.486-224-224v-96h-128v-192h128v-512h192v512h160l32 192h-192v96c0 17.346 14.654 32 32 32z" />
<glyph unicode="&#xea92;" glyph-name="instagram" d="M512 867.8c136.8 0 153-0.6 206.8-3 50-2.2 77-10.6 95-17.6 23.8-9.2 41-20.4 58.8-38.2 18-18 29-35 38.4-58.8 7-18 15.4-45.2 17.6-95 2.4-54 3-70.2 3-206.8s-0.6-153-3-206.8c-2.2-50-10.6-77-17.6-95-9.2-23.8-20.4-41-38.2-58.8-18-18-35-29-58.8-38.4-18-7-45.2-15.4-95-17.6-54-2.4-70.2-3-206.8-3s-153 0.6-206.8 3c-50 2.2-77 10.6-95 17.6-23.8 9.2-41 20.4-58.8 38.2-18 18-29 35-38.4 58.8-7 18-15.4 45.2-17.6 95-2.4 54-3 70.2-3 206.8s0.6 153 3 206.8c2.2 50 10.6 77 17.6 95 9.2 23.8 20.4 41 38.2 58.8 18 18 35 29 58.8 38.4 18 7 45.2 15.4 95 17.6 53.8 2.4 70 3 206.8 3zM512 960c-139 0-156.4-0.6-211-3-54.4-2.4-91.8-11.2-124.2-23.8-33.8-13.2-62.4-30.6-90.8-59.2-28.6-28.4-46-57-59.2-90.6-12.6-32.6-21.4-69.8-23.8-124.2-2.4-54.8-3-72.2-3-211.2s0.6-156.4 3-211c2.4-54.4 11.2-91.8 23.8-124.2 13.2-33.8 30.6-62.4 59.2-90.8 28.4-28.4 57-46 90.6-59 32.6-12.6 69.8-21.4 124.2-23.8 54.6-2.4 72-3 211-3s156.4 0.6 211 3c54.4 2.4 91.8 11.2 124.2 23.8 33.6 13 62.2 30.6 90.6 59s46 57 59 90.6c12.6 32.6 21.4 69.8 23.8 124.2 2.4 54.6 3 72 3 211s-0.6 156.4-3 211c-2.4 54.4-11.2 91.8-23.8 124.2-12.6 34-30 62.6-58.6 91-28.4 28.4-57 46-90.6 59-32.6 12.6-69.8 21.4-124.2 23.8-54.8 2.6-72.2 3.2-211.2 3.2v0zM512 711c-145.2 0-263-117.8-263-263s117.8-263 263-263 263 117.8 263 263c0 145.2-117.8 263-263 263zM512 277.4c-94.2 0-170.6 76.4-170.6 170.6s76.4 170.6 170.6 170.6c94.2 0 170.6-76.4 170.6-170.6s-76.4-170.6-170.6-170.6zM846.8 721.4c0-33.91-27.49-61.4-61.4-61.4s-61.4 27.49-61.4 61.4c0 33.91 27.49 61.4 61.4 61.4s61.4-27.49 61.4-61.4z" />
<glyph unicode="&#xea93;" glyph-name="whatsapp" d="M873 811.2c-95.8 96-223.2 148.8-359 148.8-279.6 0-507.2-227.6-507.2-507.4 0-89.4 23.4-176.8 67.8-253.6l-72-263 269 70.6c74.2-40.4 157.6-61.8 242.4-61.8h0.2c0 0 0 0 0 0 279.6 0 507.4 227.6 507.4 507.4 0 135.6-52.8 263-148.6 359zM514.2 30.4v0c-75.8 0-150 20.4-214.8 58.8l-15.4 9.2-159.6-41.8 42.6 155.6-10 16c-42.4 67-64.6 144.6-64.6 224.4 0 232.6 189.2 421.8 422 421.8 112.6 0 218.6-44 298.2-123.6 79.6-79.8 123.4-185.6 123.4-298.4-0.2-232.8-189.4-422-421.8-422zM745.4 346.4c-12.6 6.4-75 37-86.6 41.2s-20 6.4-28.6-6.4c-8.4-12.6-32.8-41.2-40.2-49.8-7.4-8.4-14.8-9.6-27.4-3.2s-53.6 19.8-102 63c-37.6 33.6-63.2 75.2-70.6 87.8s-0.8 19.6 5.6 25.8c5.8 5.6 12.6 14.8 19 22.2s8.4 12.6 12.6 21.2c4.2 8.4 2.2 15.8-1 22.2s-28.6 68.8-39 94.2c-10.2 24.8-20.8 21.4-28.6 21.8-7.4 0.4-15.8 0.4-24.2 0.4s-22.2-3.2-33.8-15.8c-11.6-12.6-44.4-43.4-44.4-105.8s45.4-122.6 51.8-131.2c6.4-8.4 89.4-136.6 216.6-191.4 30.2-13 53.8-20.8 72.2-26.8 30.4-9.6 58-8.2 79.8-5 24.4 3.6 75 30.6 85.6 60.2s10.6 55 7.4 60.2c-3 5.6-11.4 8.8-24.2 15.2z" />
<glyph unicode="&#xea96;" glyph-name="twitter" d="M1024 733.6c-37.6-16.8-78.2-28-120.6-33 43.4 26 76.6 67.2 92.4 116.2-40.6-24-85.6-41.6-133.4-51-38.4 40.8-93 66.2-153.4 66.2-116 0-210-94-210-210 0-16.4 1.8-32.4 5.4-47.8-174.6 8.8-329.4 92.4-433 219.6-18-31-28.4-67.2-28.4-105.6 0-72.8 37-137.2 93.4-174.8-34.4 1-66.8 10.6-95.2 26.2 0-0.8 0-1.8 0-2.6 0-101.8 72.4-186.8 168.6-206-17.6-4.8-36.2-7.4-55.4-7.4-13.6 0-26.6 1.4-39.6 3.8 26.8-83.4 104.4-144.2 196.2-146-72-56.4-162.4-90-261-90-17 0-33.6 1-50.2 3 93.2-59.8 203.6-94.4 322.2-94.4 386.4 0 597.8 320.2 597.8 597.8 0 9.2-0.2 18.2-0.6 27.2 41 29.4 76.6 66.4 104.8 108.6z" />
<glyph unicode="&#xeaa0;" glyph-name="vimeo" d="M1023.6 686c-4.6-99.6-74.2-236.2-208.8-409.4-139.2-180.8-257-271.4-353.4-271.4-59.6 0-110.2 55-151.4 165.2-27.6 101-55 202-82.6 303-30.6 110.2-63.4 165.2-98.6 165.2-7.6 0-34.4-16.2-80.4-48.2l-48.2 62c50.6 44.4 100.4 88.8 149.4 133.2 67.4 58.2 118 88.8 151.8 92 79.6 7.6 128.8-46.8 147.2-163.4 19.8-125.8 33.6-204 41.4-234.6 23-104.4 48.2-156.6 75.8-156.6 21.4 0 53.6 33.8 96.6 101.6 42.8 67.6 65.8 119.2 69 154.6 6.2 58.4-16.8 87.8-69 87.8-24.6 0-49.8-5.6-75.8-16.8 50.4 164.8 146.4 244.8 288.4 240.2 105-2.8 154.6-71 148.6-204.4z" />
</font>
</defs>
</svg>
